osu file format v14

[General]
AudioFilename: 02. Imprinting.mp3
AudioLeadIn: 1500
PreviewTime: 46580
Countdown: 0
SampleSet: Soft
StackLeniency: 0.7
Mode: 0
LetterboxInBreaks: 0
WidescreenStoryboard: 0

[Editor]
DistanceSpacing: 0.9
BeatDivisor: 4
GridSize: 4
TimelineZoom: 2.599999

[Metadata]
Title:Imprinting
TitleUnicode:Imprinting
Artist:sakuzyo
ArtistUnicode:削除
Creator:Nozhomi
Version:Orchestra
Source:
Tags:fairythm solo album no3 Pump It Up PRIME Japanese Edition ovoui krfawy
BeatmapID:655300
BeatmapSetID:290951

[Difficulty]
HPDrainRate:7
CircleSize:4
OverallDifficulty:9
ApproachRate:9
SliderMultiplier:1.8
SliderTickRate:1

[Events]
//Background and Video events
0,0,"bg.jpg",0,0
//Break Periods
//Storyboard Layer 0 (Background)
//Storyboard Layer 1 (Fail)
//Storyboard Layer 2 (Pass)
//Storyboard Layer 3 (Foreground)
//Storyboard Sound Samples

[TimingPoints]
2780,342.857142857143,4,2,1,80,1,0
6208,-66.6666666666667,4,2,1,80,0,0
6380,-100,4,2,1,80,0,0
11694,-50,4,2,1,80,0,0
11865,-100,4,2,1,80,0,0
12380,-100,4,2,1,30,0,0
13751,-100,4,2,1,80,0,0
22322,-76.9230769230769,4,2,1,80,0,0
22665,-100,4,2,1,80,0,0
23008,-66.6666666666667,4,2,1,80,0,0
23351,-100,4,2,1,80,0,0
23694,-200,4,1,1,80,0,0
23780,-200,4,2,1,30,0,0
24722,-100,4,2,1,80,0,0
28151,-50,4,2,1,80,0,0
28322,-100,4,2,1,80,0,0
33637,-50,4,2,1,80,0,0
33808,-100,4,2,1,80,0,0
35180,-66.6666666666667,4,2,1,30,0,0
35351,-100,4,2,1,30,0,0
35694,-100,4,2,1,80,0,0
44265,-76.9230769230769,4,2,1,80,0,0
44608,-100,4,2,1,80,0,0
44951,-66.6666666666667,4,2,1,80,0,0
45294,-100,4,2,1,80,0,0
45465,-66.6666666666667,4,2,1,30,0,0
45637,-133.333333333333,4,2,1,30,0,0
46665,-100,4,2,1,80,0,0
57808,-66.6666666666667,4,2,1,30,0,0
57980,-100,4,2,1,30,0,0
60380,-100,4,2,1,80,0,0
78208,-100,4,2,1,80,0,0
79580,-83.3333333333333,4,2,1,100,0,1
84722,-66.6666666666667,4,2,1,100,0,1
85065,-100,4,2,1,100,0,1
89865,-66.6666666666667,4,2,1,40,0,0
90551,-83.3333333333333,4,2,1,100,0,1
101522,-66.6666666666667,4,2,1,40,0,0
101694,-100,4,2,1,40,0,0
102037,-66.6666666666667,4,2,1,40,0,0
102208,-100,4,2,1,40,0,0
102551,-50,4,2,1,40,0,0
102722,-100,4,2,1,40,0,0
102894,-100,4,2,1,80,0,0
106322,-50,4,2,1,80,0,0
106494,-100,4,2,1,80,0,0
111808,-50,4,2,1,80,0,0
111980,-100,4,2,1,80,0,0
112494,-100,4,2,1,30,0,0
113780,-100,4,2,1,40,0,0
113865,-100,4,1,1,80,0,0

[Colours]
Combo1 : 75,114,118
Combo2 : 255,176,216
Combo3 : 250,95,86
Combo4 : 183,0,0
Combo5 : 189,253,252
Combo6 : 50,160,192

[HitObjects]
244,144,2779,6,0,L|225:232,1,90,4|2,0:0|0:0,0:0:0:0:
316,280,3122,1,0,0:0:0:0:
164,196,3294,2,0,L|182:107,1,90,0|2,0:0|0:0,0:0:0:0:
16,64,3637,1,0,0:0:0:0:
43,275,3808,1,0,1:0:0:0:
76,288,3894,1,0,0:0:0:0:
110,299,3980,1,0,0:0:0:0:
144,288,4065,1,0,0:0:0:0:
181,273,4151,6,0,B|210:259|242:262|267:277,1,90,4|0,0:0|0:0,0:0:0:0:
423,185,4494,2,0,B|395:200|363:201|336:189,1,90,,,0:0:0:0:
184,124,4837,1,2,0:0:0:0:
256,44,5008,1,0,0:0:0:0:
463,127,5180,1,0,1:0:0:0:
488,153,5265,1,0,0:0:0:0:
496,188,5351,1,0,0:0:0:0:
488,223,5437,1,0,0:0:0:0:
463,249,5522,5,4,0:0:0:0:
316,144,5694,1,0,0:0:0:0:
151,192,5865,2,0,B|113:217|68:222,1,90,2|0,0:0|0:0,0:0:0:0:
296,100,6208,6,0,B|327:137|323:190|292:223,1,135.000005149842,4|0,0:0|0:0,0:0:0:0:
151,192,6551,1,2,0:0:0:0:
116,88,6722,1,0,0:0:0:0:
256,124,6894,5,4,0:0:0:0:
296,100,6980,1,0,0:0:0:0:
321,63,7065,1,0,0:0:0:0:
329,18,7151,1,0,0:0:0:0:
362,48,7237,1,0,1:0:0:0:
397,75,7322,1,0,0:0:0:0:
432,103,7408,1,0,0:0:0:0:
462,136,7494,1,0,0:0:0:0:
495,166,7580,6,0,L|495:213,1,45,4|0,0:0|0:0,0:0:0:0:
432,304,7751,2,0,L|432:259,1,45,,,0:0:0:0:
372,152,7922,2,0,L|372:199,1,45,0|0,1:0|0:0,0:0:0:0:
336,324,8094,2,0,L|336:279,1,45,,,0:0:0:0:
288,140,8265,6,0,B|251:136|221:112|208:80,1,90,4|0,0:0|0:0,0:0:0:0:
304,32,8608,1,0,0:0:0:0:
384,152,8780,2,0,L|476:88,2,90,0|2|0,0:0|0:0|0:0,0:0:0:0:
236,256,9294,1,0,1:0:0:0:
201,245,9380,1,0,0:0:0:0:
167,257,9465,1,0,0:0:0:0:
137,278,9551,1,0,0:0:0:0:
110,301,9637,6,0,B|75:299|47:272|42:240,1,90,4|0,0:0|0:0,0:0:0:0:
52,68,9980,1,0,0:0:0:0:
232,80,10151,2,0,B|260:65|292:66|318:79,1,90,0|2,0:0|0:0,0:0:0:0:
276,255,10494,1,0,0:0:0:0:
172,124,10665,1,0,1:0:0:0:
155,90,10751,1,0,0:0:0:0:
159,54,10837,1,0,0:0:0:0:
178,24,10922,1,0,0:0:0:0:
208,5,11008,5,4,0:0:0:0:
360,24,11180,1,0,0:0:0:0:
464,136,11351,2,0,L|448:232,1,90,2|0,0:0|0:0,0:0:0:0:
292,356,11694,6,0,B|264:395|194:379|189:306|236:277|272:290,1,180,4|0,0:0|0:0,0:0:0:0:
372,296,12037,1,2,0:0:0:0:
128,336,12208,1,0,0:0:0:0:
40,128,12380,5,0,0:0:0:0:
64,152,12465,1,0,0:0:0:0:
100,164,12551,1,0,0:0:0:0:
132,152,12637,1,0,0:0:0:0:
156,124,12722,1,0,0:0:0:0:
160,88,12808,1,0,0:0:0:0:
128,72,12894,1,0,0:0:0:0:
96,92,12980,1,0,0:0:0:0:
88,132,13065,5,0,0:0:0:0:
108,160,13151,1,0,0:0:0:0:
136,180,13237,1,0,0:0:0:0:
148,212,13322,1,0,0:0:0:0:
140,248,13408,1,0,0:0:0:0:
112,272,13494,1,0,0:0:0:0:
76,272,13580,1,0,0:0:0:0:
52,244,13665,1,0,0:0:0:0:
63,213,13751,6,0,B|89:194|123:195|148:212,1,90,4|0,0:0|0:0,0:0:0:0:
401,308,14094,2,0,B|374:327|341:326|315:310,1,90,,,0:0:0:0:
295,40,14437,2,0,B|313:66|310:99|291:122,1,90,2|0,0:0|0:0,0:0:0:0:
88,304,14780,2,0,B|67:279|70:244|92:222,1,90,0|2,0:0|0:0,0:0:0:0:
340,124,15122,5,0,0:0:0:0:
256,192,15294,1,0,0:0:0:0:
168,64,15465,1,0,0:0:0:0:
92,140,15637,1,0,0:0:0:0:
172,260,15808,1,2,0:0:0:0:
256,192,15980,1,0,0:0:0:0:
344,64,16151,1,0,0:0:0:0:
420,140,16322,1,2,0:0:0:0:
273,298,16494,6,0,B|231:340|231:340|178:366,1,90,,,0:0:0:0:
256,192,16837,2,0,B|311:204|311:204|361:237,1,90,,,0:0:0:0:
172,260,17180,2,0,B|152:202|152:202|157:143,1,90,2|0,0:0|0:0,0:0:0:0:
408,68,17522,1,2,0:0:0:0:
460,192,17694,1,0,0:0:0:0:
408,316,17865,6,0,B|383:336|349:335|325:317,1,90,,,0:0:0:0:
104,68,18208,1,2,0:0:0:0:
132,92,18294,1,0,0:0:0:0:
164,104,18380,1,0,0:0:0:0:
200,108,18465,1,0,0:0:0:0:
236,104,18551,1,0,0:0:0:0:
268,92,18637,1,0,0:0:0:0:
292,64,18722,5,0,0:0:0:0:
304,108,18808,1,0,0:0:0:0:
304,152,18894,1,0,0:0:0:0:
292,196,18980,1,0,0:0:0:0:
264,232,19065,1,2,0:0:0:0:
224,256,19151,1,0,0:0:0:0:
179,264,19237,6,0,L|131:188,1,90,4|0,0:0|0:0,0:0:0:0:
111,147,19494,1,0,0:0:0:0:
87,108,19580,1,0,0:0:0:0:
129,120,19665,1,0,0:0:0:0:
174,121,19751,1,0,0:0:0:0:
218,116,19837,1,0,0:0:0:0:
259,99,19922,1,2,0:0:0:0:
386,30,20094,5,0,0:0:0:0:
328,161,20265,1,0,1:0:0:0:
321,205,20351,1,0,0:0:0:0:
331,248,20437,1,0,0:0:0:0:
359,282,20522,1,0,0:0:0:0:
399,300,20608,6,0,L|304:334,1,90,4|0,0:0|0:0,0:0:0:0:
272,348,20865,1,0,0:0:0:0:
228,360,20951,1,0,0:0:0:0:
243,317,21037,1,0,0:0:0:0:
246,272,21122,1,0,0:0:0:0:
242,226,21208,1,0,0:0:0:0:
229,182,21294,1,2,0:0:0:0:
96,68,21465,5,0,0:0:0:0:
60,244,21637,1,0,1:0:0:0:
229,182,21808,1,0,0:0:0:0:
504,272,21980,6,0,B|482:302|443:312|408:298|389:273,1,135,4|0,0:0|0:0,0:0:0:0:
336,147,22322,6,0,B|337:118|310:96|279:103|263:124|263:146,1,116.999994644165,2|0,0:0|0:0,0:0:0:0:
236,272,22665,6,0,B|214:302|175:312|140:298|121:273,1,135,4|0,0:0|0:0,0:0:0:0:
242,354,23008,6,0,B|199:375|151:373|112:354,1,135.000005149842,2|0,0:0|0:0,0:0:0:0:
161,180,23351,6,0,B|182:143|173:98|143:69|107:61,1,135,4|0,0:0|0:0,0:0:0:0:
19,174,23694,6,0,B|44:220|100:224|100:224|136:270|197:264|226:218,1,247.5,4|0,0:0|0:0,0:0:0:0:
336,104,24722,5,4,0:0:0:0:
420,172,24894,1,0,0:0:0:0:
416,316,25065,1,0,0:0:0:0:
332,248,25237,1,0,0:0:0:0:
188,251,25408,1,2,0:0:0:0:
272,320,25580,1,0,0:0:0:0:
224,184,25751,1,0,1:0:0:0:
188,176,25837,1,0,0:0:0:0:
152,184,25923,1,0,0:0:0:0:
124,208,26008,1,0,0:0:0:0:
112,242,26094,6,0,B|104:278|126:313|159:324,1,90,4|0,0:0|0:0,0:0:0:0:
248,204,26437,1,0,0:0:0:0:
357,161,26608,2,0,B|378:185|378:220|358:243,1,90,0|2,0:0|0:0,0:0:0:0:
248,204,26951,1,0,0:0:0:0:
336,84,27123,1,0,1:0:0:0:
371,82,27208,1,0,0:0:0:0:
403,96,27294,1,0,0:0:0:0:
427,122,27380,1,0,0:0:0:0:
436,156,27465,5,4,0:0:0:0:
256,104,27637,1,0,0:0:0:0:
76,156,27808,1,2,0:0:0:0:
194,306,27980,1,0,0:0:0:0:
372,252,28151,6,0,B|342:174|342:174|370:82,1,180,4|0,0:0|0:0,0:0:0:0:
460,32,28494,1,2,0:0:0:0:
488,220,28665,1,0,0:0:0:0:
248,172,28837,5,4,0:0:0:0:
264,204,28923,1,0,0:0:0:0:
276,236,29008,1,0,0:0:0:0:
292,268,29094,1,0,0:0:0:0:
304,300,29180,2,0,L|368:312,1,45,0|0,1:0|0:0,0:0:0:0:
256,368,29351,2,0,L|211:359,1,45,,,0:0:0:0:
176,352,29523,5,4,0:0:0:0:
140,344,29608,1,0,0:0:0:0:
104,336,29694,1,0,0:0:0:0:
68,328,29780,1,0,0:0:0:0:
32,312,29865,2,0,L|16:354,1,45,0|0,1:0|0:0,0:0:0:0:
0,228,30037,2,0,L|15:185,1,45,,,0:0:0:0:
52,104,30208,5,4,0:0:0:0:
156,132,30380,1,0,0:0:0:0:
300,76,30551,2,0,L|212:53,1,90,,,0:0:0:0:
324,160,30894,2,0,L|411:182,1,90,2|0,0:0|0:0,0:0:0:0:
456,320,31237,1,0,1:0:0:0:
445,284,31323,1,0,0:0:0:0:
433,248,31409,1,0,0:0:0:0:
421,216,31494,1,0,0:0:0:0:
411,183,31580,5,4,0:0:0:0:
376,80,31752,1,0,0:0:0:0:
256,160,31923,1,0,0:0:0:0:
136,80,32094,2,0,B|107:66|75:67|49:81,2,90,0|2|0,0:0|0:0|0:0,0:0:0:0:
196,212,32609,1,0,1:0:0:0:
224,236,32695,1,0,0:0:0:0:
256,252,32781,1,0,0:0:0:0:
288,236,32866,1,0,0:0:0:0:
316,212,32951,5,4,0:0:0:0:
256,120,33123,1,0,0:0:0:0:
256,264,33294,1,2,0:0:0:0:
256,112,33465,1,0,0:0:0:0:
186,290,33637,6,0,B|204:337|259:358|307:333|324:292,1,180,4|0,0:0|0:0,0:0:0:0:
388,160,33980,1,2,0:0:0:0:
256,192,34151,1,0,0:0:0:0:
124,160,34322,5,0,0:0:0:0:
94,138,34408,1,0,0:0:0:0:
81,104,34494,1,0,0:0:0:0:
84,68,34580,1,0,0:0:0:0:
111,44,34665,1,0,0:0:0:0:
146,40,34751,1,0,0:0:0:0:
177,58,34837,1,0,0:0:0:0:
192,90,34922,1,0,0:0:0:0:
215,117,35008,1,0,0:0:0:0:
248,130,35094,1,0,0:0:0:0:
283,135,35180,6,0,B|307:136|330:129|347:116,1,67.5000025749208,,,0:0:0:0:
400,72,35351,2,8,L|394:50,4,22.5,,,0:0:0:0:
416,144,35608,1,0,0:0:0:0:
416,144,35694,6,0,L|436:240,1,90,4|0,0:0|0:0,0:0:0:0:
352,356,36037,2,0,L|333:267,1,90,,,0:0:0:0:
283,135,36380,1,2,0:0:0:0:
232,228,36551,1,0,0:0:0:0:
176,136,36722,1,0,0:0:0:0:
283,135,36894,1,2,0:0:0:0:
257,181,36980,1,0,0:0:0:0:
232,228,37065,5,0,0:0:0:0:
144,112,37237,1,0,0:0:0:0:
288,100,37408,1,2,0:0:0:0:
324,96,37494,1,0,0:0:0:0:
360,92,37580,1,0,0:0:0:0:
396,88,37665,1,0,0:0:0:0:
432,84,37751,1,2,0:0:0:0:
376,256,37922,1,0,0:0:0:0:
288,100,38094,1,2,0:0:0:0:
260,76,38180,1,0,0:0:0:0:
232,52,38265,1,0,0:0:0:0:
204,76,38351,1,0,0:0:0:0:
176,100,38437,5,0,0:0:0:0:
48,224,38608,1,0,0:0:0:0:
176,352,38780,1,0,0:0:0:0:
200,324,38865,1,0,0:0:0:0:
212,292,38951,1,0,0:0:0:0:
200,256,39037,1,0,0:0:0:0:
176,228,39122,1,2,0:0:0:0:
72,128,39294,1,0,0:0:0:0:
136,288,39465,1,2,0:0:0:0:
244,152,39637,5,0,0:0:0:0:
244,152,39722,1,0,0:0:0:0:
244,152,39808,1,0,0:0:0:0:
136,288,39980,1,0,0:0:0:0:
308,312,40151,1,0,0:0:0:0:
416,176,40322,1,0,0:0:0:0:
244,152,40494,1,2,0:0:0:0:
350,16,40665,1,0,0:0:0:0:
416,176,40837,1,0,0:0:0:0:
308,312,41008,1,2,0:0:0:0:
244,152,41180,5,0,0:0:0:0:
139,16,41351,1,0,0:0:0:0:
117,45,41437,1,0,0:0:0:0:
111,80,41523,1,0,0:0:0:0:
124,113,41608,1,0,0:0:0:0:
146,141,41694,1,0,0:0:0:0:
179,154,41780,1,0,0:0:0:0:
214,156,41865,1,2,0:0:0:0:
372,88,42037,5,0,0:0:0:0:
236,192,42208,1,0,1:0:0:0:
236,228,42294,1,0,0:0:0:0:
254,258,42380,1,0,0:0:0:0:
284,275,42465,1,0,0:0:0:0:
320,272,42551,1,4,0:0:0:0:
456,168,42723,5,2,0:0:0:0:
472,136,42808,1,0,0:0:0:0:
475,100,42894,1,0,0:0:0:0:
458,67,42980,1,0,0:0:0:0:
423,58,43065,1,0,0:0:0:0:
388,69,43151,1,0,0:0:0:0:
351,67,43237,1,2,0:0:0:0:
156,36,43408,5,0,0:0:0:0:
228,220,43580,1,0,1:0:0:0:
351,67,43751,1,0,0:0:0:0:
156,332,43922,6,0,B|186:366|236:373|276:352|295:317,1,135,4|0,0:0|0:0,0:0:0:0:
279,191,44265,6,0,B|265:162|229:150|198:165|186:191,1,116.999994644165,2|0,0:0|0:0,0:0:0:0:
284,264,44608,6,0,B|328:264|363:226|362:179|337:149,1,135,4|0,0:0|0:0,0:0:0:0:
276,87,44951,6,0,B|241:121|187:120|153:89,1,135.000005149842,2|0,0:0|0:0,0:0:0:0:
320,32,45294,6,0,B|341:51|349:78|344:104,1,45,4|0,0:0|0:0,0:0:0:0:
356,136,45465,6,0,L|440:164,1,67.5000025749208,,,0:0:0:0:
456,240,45637,6,0,L|320:196,1,135.000005149842,2|0,0:0|0:0,0:0:0:0:
128,152,46237,1,2,0:0:0:0:
204,340,46494,1,2,0:0:0:0:
324,204,46665,6,0,B|305:171|310:132|332:105,1,90,4|0,0:0|0:0,0:0:0:0:
452,248,47008,2,0,B|471:281|466:320|444:347,1,90,,,0:0:0:0:
324,204,47351,2,0,L|232:168,1,90,2|0,0:0|0:0,0:0:0:0:
124,124,47694,1,0,0:0:0:0:
148,228,47865,1,2,0:0:0:0:
256,352,48037,6,0,B|283:369|316:367|341:352,1,90,,,0:0:0:0:
436,300,48380,1,0,0:0:0:0:
344,244,48551,1,0,0:0:0:0:
203,289,48722,2,0,B|187:261|189:229|204:203,1,90,2|0,0:0|0:0,0:0:0:0:
255,107,49065,1,0,0:0:0:0:
407,151,49237,1,2,0:0:0:0:
407,151,49322,1,0,0:0:0:0:
407,151,49408,6,0,B|427:175|426:210|407:233,1,90,,,0:0:0:0:
306,192,49751,1,0,0:0:0:0:
205,155,49922,1,0,0:0:0:0:
75,217,50094,2,0,B|54:242|56:277|76:300,1,90,2|0,0:0|0:0,0:0:0:0:
166,360,50437,1,0,0:0:0:0:
256,300,50608,1,2,0:0:0:0:
384,148,50780,6,0,B|380:116|393:86|417:68,1,90,,,0:0:0:0:
344,216,51122,2,0,B|318:235|286:237|258:226,1,90,,,0:0:0:0:
423,216,51465,2,0,B|470:235|493:288|474:338|436:362,1,180,2|0,0:0|0:0,0:0:0:0:
256,300,51980,1,2,0:0:0:0:
224,284,52065,1,0,0:0:0:0:
192,268,52151,5,0,0:0:0:0:
324,104,52322,1,0,0:0:0:0:
423,216,52494,2,0,B|396:234|365:239|337:233,1,90,,,0:0:0:0:
200,180,52837,1,2,0:0:0:0:
64,236,53008,1,0,0:0:0:0:
88,80,53180,2,0,L|124:184,1,90,0|2,0:0|0:0,0:0:0:0:
229,265,53522,6,0,L|200:180,1,90,,,0:0:0:0:
228,32,53865,2,0,L|257:117,1,90,,,0:0:0:0:
316,256,54208,1,2,0:0:0:0:
396,136,54380,1,0,0:0:0:0:
257,117,54551,2,0,B|232:96|196:99|173:121,1,90,0|2,0:0|0:0,0:0:0:0:
357,196,54894,6,0,B|382:217|418:214|441:192,1,90,4|0,0:0|0:0,0:0:0:0:
462,165,55151,1,0,0:0:0:0:
468,129,55237,1,0,0:0:0:0:
455,95,55322,1,0,0:0:0:0:
427,71,55408,1,0,0:0:0:0:
391,64,55494,1,0,0:0:0:0:
356,75,55580,1,2,0:0:0:0:
192,228,55751,5,0,1:0:0:0:
384,272,55922,1,0,1:0:0:0:
356,75,56094,1,0,1:0:0:0:
192,228,56265,6,0,L|112:300,1,90,4|0,0:0|0:0,0:0:0:0:
100,312,56522,1,0,0:0:0:0:
76,336,56608,1,0,0:0:0:0:
64,304,56694,1,0,0:0:0:0:
52,272,56780,1,0,0:0:0:0:
40,240,56865,1,0,0:0:0:0:
28,208,56951,1,2,0:0:0:0:
132,60,57122,5,0,1:0:0:0:
256,192,57294,1,0,1:0:0:0:
380,324,57465,1,0,1:0:0:0:
484,176,57637,5,2,0:0:0:0:
288,256,57808,2,0,B|267:268|242:266|223:255,1,67.5000025749208,,,0:0:0:0:
160,224,57980,1,0,0:0:0:0:
356,40,58237,2,0,B|379:52|396:72,1,45,,,0:0:0:0:
348,216,58494,1,0,0:0:0:0:
216,120,58665,1,0,0:0:0:0:
208,284,58837,1,0,0:0:0:0:
348,216,59008,5,0,0:0:0:0:
12,88,59351,1,0,0:0:0:0:
256,356,59694,1,0,0:0:0:0:
500,88,60037,1,2,0:0:0:0:
256,164,60208,2,0,L|256:216,1,45,,,0:0:0:0:
216,288,60380,6,0,B|244:270|279:273|304:292,1,90,4|0,0:0|0:0,0:0:0:0:
192,109,60722,2,0,B|194:142|174:171|146:183,1,90,,,0:0:0:0:
359,178,61065,2,0,B|329:163|313:131|318:101,1,90,2|0,0:0|0:0,0:0:0:0:
400,240,61408,2,0,B|372:258|337:255|312:236,1,90,0|2,0:0|0:0,0:0:0:0:
256,208,61665,1,0,0:0:0:0:
196,238,61751,6,0,B|170:255|137:255|112:240,1,90,,,0:0:0:0:
8,152,62094,1,0,0:0:0:0:
108,60,62265,1,0,0:0:0:0:
208,152,62437,1,2,0:0:0:0:
308,60,62608,1,0,0:0:0:0:
408,152,62780,1,0,0:0:0:0:
444,328,62951,1,2,0:0:0:0:
412,312,63037,1,0,0:0:0:0:
380,296,63122,6,0,L|288:324,1,90,,,0:0:0:0:
140,268,63465,2,0,L|226:241,1,90,,,0:0:0:0:
332,116,63808,2,0,L|240:144,1,90,2|0,0:0|0:0,0:0:0:0:
76,80,64151,1,0,0:0:0:0:
56,108,64237,1,0,0:0:0:0:
44,140,64322,1,2,0:0:0:0:
56,176,64408,1,0,0:0:0:0:
80,204,64494,6,0,B|110:181|148:178|180:192,1,90,,,0:0:0:0:
296,220,64837,1,0,0:0:0:0:
212,324,65008,1,0,0:0:0:0:
165,187,65180,1,2,0:0:0:0:
304,152,65351,1,0,0:0:0:0:
360,284,65522,2,0,B|358:319|330:346|297:348,1,90,0|2,0:0|0:0,0:0:0:0:
258,335,65780,1,0,0:0:0:0:
212,324,65865,5,0,0:0:0:0:
235,172,66037,1,0,0:0:0:0:
382,130,66208,2,0,B|399:157|397:189|381:214,1,90,,,0:0:0:0:
89,214,66551,2,0,B|70:188|71:154|88:129,1,90,2|0,0:0|0:0,0:0:0:0:
236,26,66894,1,0,0:0:0:0:
328,180,67065,1,2,0:0:0:0:
348,220,67151,1,0,0:0:0:0:
328,260,67237,6,0,B|304:292|311:336|342:359,1,90,,,0:0:0:0:
328,180,67580,2,0,B|313:143|270:126|234:142,1,90,,,0:0:0:0:
391,220,67922,2,0,B|423:224|452:206|465:180,1,90,2|0,0:0|0:0,0:0:0:0:
340,28,68265,1,0,0:0:0:0:
223,166,68437,1,2,0:0:0:0:
204,196,68522,1,0,0:0:0:0:
188,228,68608,6,0,B|194:259|188:290|175:316,1,90,,,0:0:0:0:
44,220,68951,1,0,0:0:0:0:
204,196,69122,1,0,0:0:0:0:
68,76,69294,1,2,0:0:0:0:
228,52,69465,1,0,0:0:0:0:
372,192,69637,1,2,0:0:0:0:
391,221,69722,1,0,0:0:0:0:
397,257,69808,1,2,0:0:0:0:
391,292,69894,1,0,0:0:0:0:
372,324,69980,6,0,L|277:342,1,90,,,0:0:0:0:
372,192,70322,2,0,L|460:208,1,90,,,0:0:0:0:
304,237,70665,2,0,B|284:212|283:178|299:153,1,90,2|0,0:0|0:0,0:0:0:0:
440,40,71008,1,0,0:0:0:0:
264,80,71180,1,2,0:0:0:0:
229,72,71265,1,0,0:0:0:0:
193,67,71351,6,0,L|156:152,1,90,4|0,0:0|0:0,0:0:0:0:
88,296,71694,2,0,B|110:311|110:311|171:324,1,90,,,0:0:0:0:
304,236,72037,2,0,B|281:220|281:220|220:207,1,90,2|0,0:0|0:0,0:0:0:0:
88,296,72380,1,0,0:0:0:0:
52,120,72551,5,2,0:0:0:0:
48,84,72637,1,0,0:0:0:0:
44,48,72722,2,0,B|84:68|84:68|136:80,1,90,,,0:0:0:0:
308,124,73065,2,0,B|284:162|284:162|244:181,1,90,,,0:0:0:0:
88,296,73408,2,0,B|111:334|111:334|151:353,1,90,2|0,0:0|0:0,0:0:0:0:
344,340,73751,1,0,0:0:0:0:
476,204,73922,1,2,0:0:0:0:
452,176,74008,1,0,0:0:0:0:
428,148,74094,6,0,L|366:213,1,90,,,0:0:0:0:
256,320,74437,1,0,0:0:0:0:
148,212,74608,1,0,0:0:0:0:
148,32,74780,1,2,0:0:0:0:
256,140,74951,1,0,0:0:0:0:
364,32,75122,1,0,0:0:0:0:
364,212,75294,1,2,0:0:0:0:
189,272,75465,6,0,B|164:292|130:291|106:273,1,90,,,0:0:0:0:
321,152,75808,2,0,B|345:131|380:131|404:150,1,90,,,0:0:0:0:
135,314,76151,2,0,B|114:289|114:255|133:231,1,90,2|0,0:0|0:0,0:0:0:0:
375,108,76494,2,0,B|395:133|394:167|376:191,1,90,0|2,0:0|0:0,0:0:0:0:
256,192,76837,12,4,78208,0:0:0:0:
356,232,78551,5,2,0:0:0:0:
28,84,78894,1,0,0:0:0:0:
10,115,78980,1,0,0:0:0:0:
20,149,79065,1,0,0:0:0:0:
44,175,79151,1,0,0:0:0:0:
78,184,79237,1,0,0:0:0:0:
111,173,79322,1,0,0:0:0:0:
139,151,79408,2,0,L|139:108,3,22.5,2|0|0|0,0:0|0:0|0:0|0:0,0:0:0:0:
143,62,79580,6,0,B|161:38|193:30|221:42|237:63,1,107.999996704102,4|0,0:0|0:0,0:0:0:0:
256,236,79922,1,8,0:0:0:0:
472,308,80094,1,0,0:0:0:0:
464,264,80180,1,0,0:0:0:0:
456,220,80265,2,0,B|438:196|406:188|378:200|362:221,1,107.999996704102,2|0,0:0|0:0,0:0:0:0:
256,360,80608,1,8,0:0:0:0:
48,268,80780,1,0,0:0:0:0:
61,228,80865,1,0,0:0:0:0:
76,187,80951,6,0,B|103:160|102:117|77:90,1,107.999996704102,2|0,0:0|0:0,0:0:0:0:
257,262,81294,2,0,B|229:289|229:333|256:360,1,107.999996704102,8|0,0:0|0:0,0:0:0:0:
440,192,81637,2,0,L|316:160,1,107.999996704102,2|0,0:0|0:0,0:0:0:0:
144,88,81980,1,8,0:0:0:0:
175,290,82151,1,0,0:0:0:0:
360,192,82322,5,2,0:0:0:0:
403,169,82408,1,0,0:0:0:0:
422,124,82494,1,0,0:0:0:0:
403,78,82580,1,0,0:0:0:0:
357,61,82665,1,10,0:0:0:0:
311,79,82751,1,0,0:0:0:0:
280,116,82837,1,0,0:0:0:0:
234,130,82922,1,0,0:0:0:0:
187,114,83008,5,2,0:0:0:0:
153,79,83094,1,0,0:0:0:0:
109,59,83180,1,0,0:0:0:0:
62,72,83265,1,0,0:0:0:0:
44,117,83351,1,10,0:0:0:0:
64,162,83437,1,0,0:0:0:0:
93,201,83522,1,0,0:0:0:0:
81,248,83608,1,0,0:0:0:0:
33,260,83694,5,2,0:0:0:0:
2,222,83780,1,0,0:0:0:0:
19,177,83865,1,0,0:0:0:0:
64,162,83951,1,0,0:0:0:0:
111,173,84037,1,10,0:0:0:0:
158,179,84122,1,0,0:0:0:0:
206,177,84208,1,0,0:0:0:0:
253,165,84294,1,0,0:0:0:0:
288,132,84380,2,0,B|297:181|330:218|372:236,1,107.999996704102,2|0,0:0|0:0,0:0:0:0:
348,73,84722,6,0,B|314:39|260:40|227:72,1,135.000005149842,8|0,0:0|0:0,0:0:0:0:
408,116,84980,1,0,0:0:0:0:
408,116,85065,6,0,B|430:89|427:52|405:28,1,90,4|0,0:0|0:0,0:0:0:0:
256,54,85408,1,8,0:0:0:0:
103,33,85580,1,0,0:0:0:0:
112,72,85665,1,0,0:0:0:0:
120,112,85751,2,0,B|124:144|124:144|87:188,1,90,2|0,0:0|0:0,0:0:0:0:
256,168,86094,1,8,0:0:0:0:
392,112,86265,1,0,0:0:0:0:
392,112,86351,1,0,0:0:0:0:
392,112,86437,6,0,B|388:144|388:144|424:188,1,90,2|0,0:0|0:0,0:0:0:0:
412,332,86780,2,0,L|348:256,1,90,8|0,0:0|0:0,0:0:0:0:
256,112,87122,2,0,L|256:208,1,90,2|0,0:0|0:0,0:0:0:0:
100,332,87465,2,0,L|164:256,1,90,8|0,0:0|0:0,0:0:0:0:
256,112,87808,5,2,0:0:0:0:
291,92,87894,1,0,0:0:0:0:
330,99,87980,1,0,0:0:0:0:
356,128,88065,1,0,0:0:0:0:
372,164,88151,1,10,0:0:0:0:
399,194,88237,1,0,0:0:0:0:
437,205,88322,1,0,0:0:0:0:
476,194,88408,1,0,0:0:0:0:
503,164,88494,5,2,0:0:0:0:
495,123,88580,1,0,0:0:0:0:
471,92,88665,1,0,0:0:0:0:
437,80,88751,1,0,0:0:0:0:
399,95,88837,1,10,0:0:0:0:
370,123,88922,1,0,0:0:0:0:
372,164,89008,1,0,0:0:0:0:
365,204,89094,1,0,0:0:0:0:
347,240,89180,5,2,0:0:0:0:
184,316,89351,1,0,0:0:0:0:
96,160,89522,1,8,0:0:0:0:
259,83,89694,1,0,0:0:0:0:
347,240,89865,6,0,L|392:304,1,45.0000017166138,2|0,0:0|0:0,0:0:0:0:
96,160,90037,2,0,L|69:124,1,45.0000017166138,2|0,0:0|0:0,0:0:0:0:
184,316,90208,2,0,L|158:352,1,45.0000017166138,2|0,0:0|0:0,0:0:0:0:
259,83,90380,2,0,L|285:46,1,45.0000017166138,2|0,0:0|0:0,0:0:0:0:
440,240,90551,6,0,B|423:265|391:273|364:262|348:241,1,107.999996704102,4|0,0:0|0:0,0:0:0:0:
176,108,90893,1,8,0:0:0:0:
272,356,91065,1,0,0:0:0:0:
272,356,91151,1,0,0:0:0:0:
272,356,91237,2,0,L|248:248,1,107.999996704102,2|0,0:0|0:0,0:0:0:0:
212,80,91579,1,8,0:0:0:0:
382,214,91751,1,0,0:0:0:0:
339,196,91836,1,0,0:0:0:0:
296,176,91922,6,0,B|264:155|223:158|196:181,1,107.999996704102,2|0,0:0|0:0,0:0:0:0:
83,321,92265,2,0,B|115:342|156:339|183:316,1,107.999996704102,8|0,0:0|0:0,0:0:0:0:
100,92,92608,2,0,L|140:192,1,107.999996704102,2|0,0:0|0:0,0:0:0:0:
256,352,92951,1,8,0:0:0:0:
372,192,93122,1,0,0:0:0:0:
170,337,93294,5,2,0:0:0:0:
131,307,93380,1,0,0:0:0:0:
103,268,93465,1,0,0:0:0:0:
87,221,93551,1,0,0:0:0:0:
99,173,93637,1,10,0:0:0:0:
135,140,93722,1,0,0:0:0:0:
183,146,93808,1,0,0:0:0:0:
220,177,93894,1,0,0:0:0:0:
256,211,93980,5,2,0:0:0:0:
292,177,94065,1,0,0:0:0:0:
329,146,94151,1,0,0:0:0:0:
377,140,94236,1,0,0:0:0:0:
413,173,94322,1,10,0:0:0:0:
425,221,94408,1,0,0:0:0:0:
409,268,94493,1,0,0:0:0:0:
381,307,94579,1,0,0:0:0:0:
342,337,94665,6,0,L|286:337,1,53.9999983520508,2|0,0:0|0:0,0:0:0:0:
103,268,94837,2,0,L|157:268,1,53.9999983520508,,,0:0:0:0:
329,146,95008,2,0,L|275:146,1,53.9999983520508,10|0,0:0|0:0,0:0:0:0:
409,268,95180,2,0,L|463:268,1,53.9999983520508,,,0:0:0:0:
472,128,95351,5,2,0:0:0:0:
256,28,95522,1,0,0:0:0:0:
40,128,95694,1,8,0:0:0:0:
256,192,95865,1,0,0:0:0:0:
419,299,96037,6,0,B|392:328|347:329|318:304,1,107.999996704102,4|0,0:0|0:0,0:0:0:0:
256,124,96379,1,8,0:0:0:0:
191,307,96551,1,0,0:0:0:0:
191,307,96636,1,0,0:0:0:0:
191,306,96722,2,0,B|161:329|119:325|93:300,1,107.999996704102,2|0,0:0|0:0,0:0:0:0:
160,128,97065,1,8,0:0:0:0:
304,240,97236,1,0,0:0:0:0:
304,240,97322,1,0,0:0:0:0:
304,240,97408,6,0,B|332:266|375:265|402:239,1,107.999996704102,2|0,0:0|0:0,0:0:0:0:
192,224,97751,2,0,B|155:235|134:273|143:308,1,107.999996704102,8|0,0:0|0:0,0:0:0:0:
256,128,98094,2,0,B|264:90|241:54|207:42,1,107.999996704102,2|0,0:0|0:0,0:0:0:0:
36,108,98436,1,8,0:0:0:0:
192,224,98608,1,0,0:0:0:0:
384,128,98780,5,2,0:0:0:0:
421,96,98865,1,0,0:0:0:0:
469,96,98951,1,0,0:0:0:0:
504,128,99036,1,0,0:0:0:0:
504,176,99122,1,10,0:0:0:0:
469,210,99208,1,0,0:0:0:0:
420,210,99293,1,0,0:0:0:0:
384,176,99379,1,0,0:0:0:0:
384,128,99465,6,0,L|371:67,1,53.9999983520508,2|0,0:0|0:0,0:0:0:0:
316,188,99637,2,0,L|327:240,1,53.9999983520508,,,0:0:0:0:
252,128,99808,2,0,L|240:75,1,53.9999983520508,10|0,0:0|0:0,0:0:0:0:
184,212,99980,2,0,L|195:264,1,53.9999983520508,,,0:0:0:0:
205,295,100151,5,2,0:0:0:0:
206,327,100237,1,0,0:0:0:0:
185,358,100322,1,0,0:0:0:0:
147,363,100408,1,0,0:0:0:0:
109,341,100494,1,0,0:0:0:0:
91,301,100580,1,0,0:0:0:0:
89,252,100665,1,0,0:0:0:0:
105,206,100751,1,0,0:0:0:0:
133,159,100837,5,0,0:0:0:0:
148,107,100922,1,0,0:0:0:0:
127,56,101008,1,0,0:0:0:0:
68,46,101094,1,0,0:0:0:0:
21,83,101180,1,0,0:0:0:0:
22,147,101265,1,0,0:0:0:0:
79,178,101351,1,0,0:0:0:0:
311,241,101522,6,0,L|443:264,1,135.000005149842,2|8,0:0|0:0,0:0:0:0:
456,266,101780,1,8,0:0:0:0:
468,268,101865,1,8,0:0:0:0:
263,169,102037,6,0,L|127:145,1,135.000005149842,2|8,0:0|0:0,0:0:0:0:
118,144,102295,1,8,0:0:0:0:
106,142,102380,1,8,0:0:0:0:
344,136,102551,6,0,L|328:232,1,90,2|0,0:0|0:0,0:0:0:0:
263,169,102722,6,0,L|270:124,1,45,2|0,0:0|0:0,0:0:0:0:
244,32,102894,6,0,B|208:35|182:63|178:96,1,90,4|0,0:0|0:0,0:0:0:0:
232,242,103237,1,0,0:0:0:0:
296,330,103409,1,0,0:0:0:0:
160,284,103580,1,2,0:0:0:0:
96,196,103752,1,0,0:0:0:0:
300,176,103923,1,0,1:0:0:0:
324,204,104009,1,0,0:0:0:0:
328,240,104095,1,0,0:0:0:0:
316,272,104180,1,0,0:0:0:0:
288,296,104265,6,0,L|380:316,1,90,4|0,0:0|0:0,0:0:0:0:
504,248,104608,1,0,0:0:0:0:
452,152,104780,1,0,0:0:0:0:
324,84,104951,1,2,0:0:0:0:
376,180,105123,1,0,0:0:0:0:
252,52,105294,1,0,1:0:0:0:
276,24,105380,1,0,0:0:0:0:
308,8,105466,1,0,0:0:0:0:
344,8,105551,1,0,0:0:0:0:
376,28,105637,6,0,B|403:55|406:96|387:126,1,90,4|0,0:0|0:0,0:0:0:0:
348,248,105980,1,2,0:0:0:0:
256,136,106152,1,0,0:0:0:0:
276,316,106323,6,0,B|297:361|351:379|398:357|418:318,1,180,4|0,0:0|0:0,0:0:0:0:
472,180,106666,1,2,0:0:0:0:
332,148,106837,1,0,0:0:0:0:
176,240,107009,5,4,0:0:0:0:
152,212,107095,1,0,0:0:0:0:
138,179,107180,1,0,0:0:0:0:
144,143,107266,1,0,0:0:0:0:
165,113,107352,1,0,1:0:0:0:
194,93,107437,1,0,0:0:0:0:
230,95,107523,1,0,0:0:0:0:
256,119,107609,1,0,0:0:0:0:
283,142,107695,5,4,0:0:0:0:
317,151,107780,1,0,0:0:0:0:
352,142,107866,1,0,0:0:0:0:
375,114,107952,1,0,0:0:0:0:
384,79,108037,1,0,1:0:0:0:
358,52,108123,1,0,0:0:0:0:
322,44,108209,1,0,0:0:0:0:
290,62,108295,1,0,0:0:0:0:
269,91,108380,6,0,L|254:197,1,90,4|0,0:0|0:0,0:0:0:0:
244,324,108723,1,0,0:0:0:0:
144,280,108895,1,0,0:0:0:0:
256,192,109065,1,0,0:0:0:0:
356,236,109237,1,0,0:0:0:0:
424,68,109409,1,0,1:0:0:0:
448,96,109495,1,0,0:0:0:0:
456,132,109581,1,0,0:0:0:0:
448,168,109666,1,0,0:0:0:0:
423,195,109751,6,0,B|396:178|363:180|339:197,1,90,4|0,0:0|0:0,0:0:0:0:
211,264,110094,1,0,0:0:0:0:
108,228,110266,1,0,0:0:0:0:
104,84,110437,1,0,0:0:0:0:
207,120,110609,1,0,0:0:0:0:
144,288,110780,1,0,1:0:0:0:
108,300,110866,1,0,0:0:0:0:
72,288,110952,1,0,0:0:0:0:
48,260,111037,1,0,0:0:0:0:
40,223,111122,6,0,B|68:208|82:178|81:149,1,90,4|0,0:0|0:0,0:0:0:0:
24,16,111465,1,2,0:0:0:0:
164,48,111636,1,0,0:0:0:0:
328,220,111808,6,0,B|371:232|413:192|402:140|364:118|331:125,1,180,4|0,0:0|0:0,0:0:0:0:
156,188,112151,1,2,0:0:0:0:
272,48,112322,1,0,0:0:0:0:
328,220,112494,5,0,0:0:0:0:
339,254,112580,1,0,0:0:0:0:
347,288,112665,1,0,0:0:0:0:
336,322,112751,1,0,0:0:0:0:
304,339,112837,1,0,0:0:0:0:
268,334,112922,1,0,0:0:0:0:
239,311,113008,1,0,0:0:0:0:
231,275,113094,1,0,0:0:0:0:
237,239,113180,5,0,0:0:0:0:
249,205,113265,1,0,0:0:0:0:
272,177,113351,1,0,0:0:0:0:
291,146,113437,1,0,0:0:0:0:
295,110,113522,1,0,0:0:0:0:
273,80,113608,1,0,0:0:0:0:
240,64,113694,1,0,0:0:0:0:
207,79,113780,1,0,0:0:0:0:
190,110,113865,5,4,0:0:0:0:
